Articles of ffmpeg

Cómo instalar la versión más nueva de ffmpeg desde ffmpeg.org

Quiero instalar la versión más nueva de ffmpeg en mi server. Versión actual: ffmpeg versión 2.6.8 Copyright (c) 2000-2016 los desarrolladores de FFmpeg construido con gcc 4.8.5 (GCC) 20150623 (Red Hat 4.8.5-4) Mi versión de Centos: Sistema operativo: CentOS Linux 7 (Core) Nombre del sistema operativo CPE: cpe: / o: centos: centos: 7 Kernel: Linux […]

¿Cómo download la mejor calidad .mp3 con youtube-dl en Sierra?

en primer lugar, soy bastante novato, así que me disculpo por adelantado por cualquier ignorancia o error tipográfico. Básicamente, estoy tratando de usar youtube-dl para download los files .mp3 de mayor calidad de los videos de YouTube. Instalé youtube-dl y ffmpeg y descargué libav. Encontré este command: youtube-dl -f bestaudio –audio-quality 0 –audio-format mp3 https://www.youtube.com/watch?v=3zy1SNH-VqE […]

Eliminar el silencio de mp4

Cuando mi maestro da una presentación en nuestra class, se graba. El resultado final es que tienes un file mp4 con las diapositivas y la voz de mi profesor. En la mayoría de los casos, los primeros diez o quince minutos son solo silencio y la diapositiva de bienvenida. Mi pregunta es cómo elimino o […]

Dile a ffserver qué pista usar

Quiero transmitir videos a través de ffserver. Mis videos están en formattings contenedores como mkv y avi y, a veces tienen varias pistas de audio / video. ¿Cómo puedo decirle a ffserver qué pista usar? Parece que siempre toma el primero.

Error: el file contiene errores de análisis: file: /////etc/yum.repos.d/dag.repo

Leí que debe tener cuidado con los files repo para security con los de terceros agregados. De todos modos, simplemente he estado tratando de instalar ffmpeg y estoy atascado porque a yum no le gusta lo que está leyendo de los files de repository y, como no tengo una comprensión real de lo que hacen […]

¿Puedo get la línea de command ffmpeg de un video existente?

Quiero generar un video con la misma configuration exacta que un video existente. Puedo correr: ffmpeg -i original.mp4 Para get información legible por los humanos sobre los contenidos: Duration: 00:05:32.32, start: 0.000000, bitrate: 474 kb/s Stream #0.0(und): Video: h264, yuv420p, 480×360, 25 tbr, 25 tbn, 50 tbc Stream #0.1(und): Audio: aac, 44100 Hz, stereo, s16 […]

Cambio de voz a través de ffmpeg u otra aplicación

Tengo un set de files de audio que contienen grabaciones de voz, necesito modificar la señal de voz para que el altavoz no pueda ser reconocido de manera automática … ¿Conoces alguna aplicación?

Comstackndo FFMPEG desde la fuente: no se puede encontrar la biblioteca compartida

Estoy comstackndo FFMPEG desde la fuente usando la guía para Ubuntu que he usado anteriormente con éxito. Estoy comstackndo en una máquina virtual Vagrant en VirtualBox en el server Ubuntu 14.04. Puede clonar el proyecto y el vagrant up , y tendrá FFMPEG instalado en el cuadro: github.com/rfkrocktk/vagrant-ffmpeg . Estoy usando Ansible para automatizar la […]

La secuencia de commands ffmpeg solo se ejecuta por primera vez en la list?

Escribí un pequeño script que convierte el video HQ a LQ: ls video/hq | cut -d. -f1 | while read line ; do HQ=./video/hq/$line.mp4 LQ=./video/lq/$line.mp4 ffmpeg -i $HQ -crf 40 $LQ done; Cuando ejecuto ls video/hq | cut -d. f1 ls video/hq | cut -d. f1 ls video/hq | cut -d. f1 vuelvo: 1502460615677 1502461135975 […]

Batch Convert .mp4 a .avi con ffmpeg

Ejecutando Ubuntu 13.10 con un ffmpeg completamente comstackdo. Sé que el código para la conversión real es ffmpeg -i video.mp4 -codec copy video.avi Solo necesito un script simple y simple de Bash para hacer eso, por ejemplo, para cuarenta o cincount de los files .mp4 .